打印 上一主题 下一主题

《银行家》4K高清下载/大小21.35GB

[复制链接]

524

主题

536

帖子

6734

积分

4K家园VIP

Rank: 9Rank: 9Rank: 9

积分
6734
跳转到指定楼层
楼主
 楼主| 发表于 2020-3-21 10:06:25 | 只看该作者 |只看大图 回帖奖励 |倒序浏览 |阅读模式
本帖最后由 没完没了 于 2020-3-21 10:08 编辑

《银行家》4K高清下载/大小21.35GB

◎译  名 银行家
◎片  名 The Banker
◎年  代 2019
◎产  地 美国
◎类  别 剧情
◎语  言 英语
◎上映日期 2019-12-06(美国)
◎IMDb评分 5.8/10 from 137 users
◎IMDb链接 https://www.imdb.com/title/tt6285944
◎豆瓣评分 0/10 from 0 users
◎豆瓣链接 https://movie.douban.com/subject/30346880/
◎片  长 120分钟
◎导  演 乔治·诺非 George Nolfi
◎编  剧 布拉德·凯恩 Brad Kane / Niceole R. Levy / 乔治·诺非 George Nolfi / David Lewis Smith / Stan Younger
◎主  演 塞缪尔·杰克逊 Samuel L. Jackson
      尼古拉斯·霍尔特 Nicholas Hoult
      安东尼·麦凯 Anthony Mackie
      杰西·厄舍 Jessie Usher
      科尔姆·米尼 Colm Meaney
      尼娅·朗 Nia Long
      保罗·本-维克托 Paul Ben-Victor
      格雷戈里·艾伦·威廉斯 Gregory Alan Williams
      迈克尔·哈尔尼 Michael Harney
      泰勒·布莱克 Taylor Black
      詹姆斯·杜蒙特 James DuMont
      罗达·格里菲丝 Rhoda Griffis
      吉尔·简·克莱门茨 Jill Jane Clements
      杰森·戴维斯 Jason Davis
      克雷格·韦茨巴赫尔 Craig Welzbacher
      克里斯·加恩 Chris Gann
      大卫·马尔登那多 David Maldonado
      格拉伦·布莱恩特·班克斯 Gralen Bryant Banks
      杰伦·戈登 Jaylon Gordon
      扎克·哈内尔 Zach Hanner
      卡梅伦·布鲁姆布罗 Cameron Brumbelow
      Daniel Johnson



◎简  介

  乔治·诺非将执导全新影片[银行家](The Banker,暂译),塞缪尔·杰克逊、安东尼·麦凯、尼古拉斯·霍尔特、尼娅·朗等主演。乔治·诺非、尼科·莱维共同操刀剧本。Romulus Entertainment融资。影片基于伯纳德·加勒特(安东尼·麦凯饰)和乔·莫里斯(塞缪尔·杰克逊饰)两个非裔美国企业家的真实故事改编,1950年代他们试图挣脱种族歧视的传统枷锁,招募白人工人为其工作。尼古拉斯·霍尔特扮演他们商业帝国的一名白人负责人。目前影片在亚特兰大展开拍摄。
Video
ID : 1
Format : HEVC
Format/Info : High Efficiency Video Coding
Format profile : Main 10@L5@High
Codec ID : V_MPEGH/ISO/HEVC
Duration : 2 h 0 min
Bit rate : 20.7 Mb/s
Width : 3 840 pixels
Height : 1 606 pixels
Display aspect ratio : 2.40:1
Frame rate mode : Constant
Frame rate : 23.976 (24000/1001/189150) FPS
Color space : YUV
Chroma subsampling : 4:2:0
Bit depth : 10 bits
Bits/(Pixel*Frame) : 0.140
Stream size : 17.4 GiB (96%)
Language : English
Default : Yes
Forced : No
Color range : Limited
Color primaries : BT.709
Transfer characteristics : BT.709
Matrix coefficients : BT.709

Audio
ID : 2
Format : E-AC-3 JOC
Format/Info : Enhanced AC-3 with Joint Object Coding
Commercial name : Dolby Digital Plus with Dolby Atmos
Codec ID : A_EAC3
Duration : 2 h 0 min
Bit rate mode : Constant
Bit rate : 768 kb/s
Channel(s) : 6 channels
Channel layout : L R C LFE Ls Rs
Sampling rate : 48.0 kHz
Frame rate : 31.250 FPS (1536 SPF)
Compression mode : Lossy
Stream size : 662 MiB (4%)
Language : English
Service kind : Complete Main
Default : Yes
Forced : No
Complexity index : 16
Number of dynamic objects : 15
Bed channel count : 1 channel
Bed channel configuration : LFE

Text #1
ID : 3
Format : UTF-8
Codec ID : S_TEXT/UTF8
Codec ID/Info : UTF-8 Plain Text
Duration : 1 h 53 min
Bit rate : 73 b/s
Count of elements : 1751
Stream size : 61.3 KiB (0%)
Language : English
Default : No
Forced : No

Text #2
ID : 4
Format : UTF-8
Codec ID : S_TEXT/UTF8
Codec ID/Info : UTF-8 Plain Text
Duration : 1 h 56 min
Bit rate : 75 b/s
Count of elements : 1848
Stream size : 64.2 KiB (0%)
Title : English (SDH)
Language : English
Default : No
Forced : No

Text #3
ID : 5
Format : UTF-8
Codec ID : S_TEXT/UTF8
Codec ID/Info : UTF-8 Plain Text
Duration : 2 h 0 min
Bit rate : 106 b/s
Count of elements : 1834
Stream size : 93.9 KiB (0%)
Language : Arabic
Default : No
Forced : No

Text #4
ID : 6
Format : UTF-8
Codec ID : S_TEXT/UTF8
Codec ID/Info : UTF-8 Plain Text
Duration : 2 h 0 min
Bit rate : 102 b/s
Count of elements : 1833
Stream size : 90.3 KiB (0%)
Language : Bulgarian
Default : No
Forced : No

Text #5
ID : 7
Format : UTF-8
Codec ID : S_TEXT/UTF8
Codec ID/Info : UTF-8 Plain Text
Duration : 2 h 0 min
Bit rate : 65 b/s
Count of elements : 1835
Stream size : 58.0 KiB (0%)
Title : Cantonese (Traditional)
Language : Chinese
Default : No
Forced : No

Text #6
ID : 8
Format : UTF-8
Codec ID : S_TEXT/UTF8
Codec ID/Info : UTF-8 Plain Text
Duration : 2 h 0 min
Bit rate : 64 b/s
Count of elements : 1835
Stream size : 56.8 KiB (0%)
Title : Chinese (Simplified)
Language : Chinese
Default : No
Forced : No

Text #7
ID : 9
Format : UTF-8
Codec ID : S_TEXT/UTF8
Codec ID/Info : UTF-8 Plain Text
Duration : 2 h 0 min
Bit rate : 62 b/s
Count of elements : 1835
Stream size : 55.4 KiB (0%)
Title : Chinese (Traditional)
Language : Chinese
Default : No
Forced : No

Text #8
ID : 10
Format : UTF-8
Codec ID : S_TEXT/UTF8
Codec ID/Info : UTF-8 Plain Text
Duration : 2 h 0 min
Bit rate : 65 b/s
Count of elements : 1815
Stream size : 57.4 KiB (0%)
Language : Czech
Default : No
Forced : No

Text #9
ID : 11
Format : UTF-8
Codec ID : S_TEXT/UTF8
Codec ID/Info : UTF-8 Plain Text
Duration : 2 h 0 min
Bit rate : 70 b/s
Count of elements : 1811
Stream size : 62.0 KiB (0%)
Language : Danish
Default : No
Forced : No

Text #10
ID : 12
Format : UTF-8
Codec ID : S_TEXT/UTF8
Codec ID/Info : UTF-8 Plain Text
Duration : 2 h 0 min
Bit rate : 62 b/s
Count of elements : 1768
Stream size : 54.8 KiB (0%)
Language : Dutch
Default : No
Forced : No

Text #11
ID : 13
Format : UTF-8
Codec ID : S_TEXT/UTF8
Codec ID/Info : UTF-8 Plain Text
Duration : 2 h 0 min
Bit rate : 64 b/s
Count of elements : 1826
Stream size : 56.7 KiB (0%)
Language : Estonian
Default : No
Forced : No

Text #12
ID : 14
Format : UTF-8
Codec ID : S_TEXT/UTF8
Codec ID/Info : UTF-8 Plain Text
Duration : 2 h 0 min
Bit rate : 56 b/s
Count of elements : 1808
Stream size : 50.0 KiB (0%)
Language : Finnish
Default : No
Forced : No

Text #13
ID : 15
Format : UTF-8
Codec ID : S_TEXT/UTF8
Codec ID/Info : UTF-8 Plain Text
Duration : 2 h 0 min
Bit rate : 64 b/s
Count of elements : 1655
Stream size : 56.4 KiB (0%)
Title : French (Canada)
Language : French
Default : No
Forced : No

Text #14
ID : 16
Format : UTF-8
Codec ID : S_TEXT/UTF8
Codec ID/Info : UTF-8 Plain Text
Duration : 2 h 0 min
Bit rate : 64 b/s
Count of elements : 1654
Stream size : 56.4 KiB (0%)
Title : French (France)
Language : French
Default : No
Forced : No

Text #15
ID : 17
Format : UTF-8
Codec ID : S_TEXT/UTF8
Codec ID/Info : UTF-8 Plain Text
Duration : 2 h 0 min
Bit rate : 71 b/s
Count of elements : 1465
Stream size : 63.4 KiB (0%)
Language : German
Default : No
Forced : No

Text #16
ID : 18
Format : UTF-8
Codec ID : S_TEXT/UTF8
Codec ID/Info : UTF-8 Plain Text
Duration : 2 h 0 min
Bit rate : 114 b/s
Count of elements : 1830
Stream size : 101 KiB (0%)
Language : Greek
Default : No
Forced : No

Text #17
ID : 19
Format : UTF-8
Codec ID : S_TEXT/UTF8
Codec ID/Info : UTF-8 Plain Text
Duration : 2 h 0 min
Bit rate : 96 b/s
Count of elements : 1832
Stream size : 85.1 KiB (0%)
Language : Hebrew
Default : No
Forced : No

Text #18
ID : 20
Format : UTF-8
Codec ID : S_TEXT/UTF8
Codec ID/Info : UTF-8 Plain Text
Duration : 2 h 0 min
Bit rate : 183 b/s
Count of elements : 1833
Stream size : 161 KiB (0%)
Language : Hindi
Default : No
Forced : No

Text #19
ID : 21
Format : UTF-8
Codec ID : S_TEXT/UTF8
Codec ID/Info : UTF-8 Plain Text
Duration : 2 h 0 min
Bit rate : 66 b/s
Count of elements : 1826
Stream size : 58.5 KiB (0%)
Language : Hungarian
Default : No
Forced : No

Text #20
ID : 22
Format : UTF-8
Codec ID : S_TEXT/UTF8
Codec ID/Info : UTF-8 Plain Text
Duration : 2 h 0 min
Bit rate : 66 b/s
Count of elements : 1822
Stream size : 58.4 KiB (0%)
Language : Indonesian
Default : No
Forced : No

Text #21
ID : 23
Format : UTF-8
Codec ID : S_TEXT/UTF8
Codec ID/Info : UTF-8 Plain Text
Duration : 2 h 0 min
Bit rate : 73 b/s
Count of elements : 1624
Stream size : 64.8 KiB (0%)
Language : Italian
Default : No
Forced : No

Text #22
ID : 24
Format : UTF-8
Codec ID : S_TEXT/UTF8
Codec ID/Info : UTF-8 Plain Text
Duration : 2 h 0 min
Bit rate : 57 b/s
Count of elements : 1654
Stream size : 50.7 KiB (0%)
Language : Japanese
Default : No
Forced : No

Text #23
ID : 25
Format : UTF-8
Codec ID : S_TEXT/UTF8
Codec ID/Info : UTF-8 Plain Text
Duration : 2 h 0 min
Bit rate : 72 b/s
Count of elements : 1832
Stream size : 63.6 KiB (0%)
Language : Latvian
Default : No
Forced : No

Text #24
ID : 26
Format : UTF-8
Codec ID : S_TEXT/UTF8
Codec ID/Info : UTF-8 Plain Text
Duration : 2 h 0 min
Bit rate : 74 b/s
Count of elements : 1833
Stream size : 65.7 KiB (0%)
Language : Lithuanian
Default : No
Forced : No

Text #25
ID : 27
Format : UTF-8
Codec ID : S_TEXT/UTF8
Codec ID/Info : UTF-8 Plain Text
Duration : 2 h 0 min
Bit rate : 73 b/s
Count of elements : 1813
Stream size : 64.4 KiB (0%)
Language : Malay
Default : No
Forced : No

Text #26
ID : 28
Format : UTF-8
Codec ID : S_TEXT/UTF8
Codec ID/Info : UTF-8 Plain Text
Duration : 2 h 0 min
Bit rate : 66 b/s
Count of elements : 1817
Stream size : 59.0 KiB (0%)
Language : Norwegian
Default : No
Forced : No

Text #27
ID : 29
Format : UTF-8
Codec ID : S_TEXT/UTF8
Codec ID/Info : UTF-8 Plain Text
Duration : 2 h 0 min
Bit rate : 62 b/s
Count of elements : 1821
Stream size : 54.7 KiB (0%)
Language : Polish
Default : No
Forced : No

Text #28
ID : 30
Format : UTF-8
Codec ID : S_TEXT/UTF8
Codec ID/Info : UTF-8 Plain Text
Duration : 2 h 0 min
Bit rate : 75 b/s
Count of elements : 1813
Stream size : 66.1 KiB (0%)
Language : Portuguese
Default : No
Forced : No

Text #29
ID : 31
Format : UTF-8
Codec ID : S_TEXT/UTF8
Codec ID/Info : UTF-8 Plain Text
Duration : 2 h 0 min
Bit rate : 67 b/s
Count of elements : 1815
Stream size : 59.8 KiB (0%)
Title : Portuguese (Brazil)
Language : Portuguese
Default : No
Forced : No

Text #30
ID : 32
Format : UTF-8
Codec ID : S_TEXT/UTF8
Codec ID/Info : UTF-8 Plain Text
Duration : 2 h 0 min
Bit rate : 109 b/s
Count of elements : 1834
Stream size : 96.1 KiB (0%)
Language : Russian
Default : No
Forced : No

Text #31
ID : 33
Format : UTF-8
Codec ID : S_TEXT/UTF8
Codec ID/Info : UTF-8 Plain Text
Duration : 2 h 0 min
Bit rate : 63 b/s
Count of elements : 1824
Stream size : 56.4 KiB (0%)
Language : Slovak
Default : No
Forced : No

Text #32
ID : 34
Format : UTF-8
Codec ID : S_TEXT/UTF8
Codec ID/Info : UTF-8 Plain Text
Duration : 2 h 0 min
Bit rate : 54 b/s
Count of elements : 1828
Stream size : 48.4 KiB (0%)
Language : Slovenian
Default : No
Forced : No

Text #33
ID : 35
Format : UTF-8
Codec ID : S_TEXT/UTF8
Codec ID/Info : UTF-8 Plain Text
Duration : 2 h 0 min
Bit rate : 72 b/s
Count of elements : 1828
Stream size : 64.0 KiB (0%)
Title : Spanish (Latin America)
Language : Spanish
Default : No
Forced : No

Text #34
ID : 36
Format : UTF-8
Codec ID : S_TEXT/UTF8
Codec ID/Info : UTF-8 Plain Text
Duration : 2 h 0 min
Bit rate : 74 b/s
Count of elements : 1959
Stream size : 65.8 KiB (0%)
Title : Spanish (Spain)
Language : Spanish
Default : No
Forced : No

Text #35
ID : 37
Format : UTF-8
Codec ID : S_TEXT/UTF8
Codec ID/Info : UTF-8 Plain Text
Duration : 2 h 0 min
Bit rate : 70 b/s
Count of elements : 1812
Stream size : 62.2 KiB (0%)
Language : Swedish
Default : No
Forced : No

Text #36
ID : 38
Format : UTF-8
Codec ID : S_TEXT/UTF8
Codec ID/Info : UTF-8 Plain Text
Duration : 2 h 0 min
Bit rate : 228 b/s
Count of elements : 1831
Stream size : 201 KiB (0%)
Language : Tamil
Default : No
Forced : No

Text #37
ID : 39
Format : UTF-8
Codec ID : S_TEXT/UTF8
Codec ID/Info : UTF-8 Plain Text
Duration : 2 h 0 min
Bit rate : 201 b/s
Count of elements : 1831
Stream size : 178 KiB (0%)
Language : Telugu
Default : No
Forced : No

Text #38
ID : 40
Format : UTF-8
Codec ID : S_TEXT/UTF8
Codec ID/Info : UTF-8 Plain Text
Duration : 2 h 0 min
Bit rate : 156 b/s
Count of elements : 1835
Stream size : 138 KiB (0%)
Language : Thai
Default : No
Forced : No

Text #39
ID : 41
Format : UTF-8
Codec ID : S_TEXT/UTF8
Codec ID/Info : UTF-8 Plain Text
Duration : 2 h 0 min
Bit rate : 105 b/s
Count of elements : 1834
Stream size : 92.9 KiB (0%)
Language : Ukrainian
Default : No
Forced : No

Text #40
ID : 42
Format : UTF-8
Codec ID : S_TEXT/UTF8
Codec ID/Info : UTF-8 Plain Text
Duration : 2 h 0 min
Bit rate : 94 b/s
Count of elements : 1830
Stream size : 83.5 KiB (0%)
Language : Vietnamese
Default : No
Forced : No


《银行家》4K高清下载/大小21.35GB 《银行家》4K高清下载/大小21.35GB 《银行家》4K高清下载/大小21.35GB


银行家(21.35GB)The.Banker.2020.2160p.ATVP.WEB-DL.x265.10bit.HDR.DDP5.1.Atmos-BaNkeR
游客,如果您要查看本帖隐藏内容请回复

银行家(18.08GB)The.Banker.2020.2160p.ATVP.WEB-DL.x265.10bit.SDR.DDP5.1.Atmos-BaNkeR
游客,如果您要查看本帖隐藏内容请回复



.
0 0

上一篇:《珍珠港:亚利桑那号探秘》4K高清下载/大小8.07GB
下一篇:《武士城堡》4K高清下载/大小6.61GB
回复

使用道具 举报

2

主题

1133

帖子

3239

积分

4K家园VIP

Rank: 9Rank: 9Rank: 9

积分
3239
沙发
发表于 2020-3-21 10:07:58 | 只看该作者
有空一起交流一下
回复 支持 反对

使用道具 举报

1

主题

855

帖子

2585

积分

4K家园VIP

Rank: 9Rank: 9Rank: 9

积分
2585
板凳
发表于 2020-3-21 10:21:28 来自手机 | 只看该作者
你们要是有4K资源记得分享,别小气
回复 支持 反对

使用道具 举报

0

主题

603

帖子

2060

积分

4K家园VIP

Rank: 9Rank: 9Rank: 9

积分
2060
地板
发表于 2020-3-21 10:50:31 | 只看该作者
太好啦&萬分感謝版主的無私發佈分享%
回复 支持 反对

使用道具 举报

0

主题

603

帖子

2060

积分

4K家园VIP

Rank: 9Rank: 9Rank: 9

积分
2060
5#
发表于 2020-3-21 12:17:41 | 只看该作者
太好啦&萬分感謝版主的無私發佈分享%
回复 支持 反对

使用道具 举报

1

主题

1011

帖子

3047

积分

4K家园VIP

Rank: 9Rank: 9Rank: 9

积分
3047
6#
发表于 2020-3-21 12:34:56 | 只看该作者
支持一下楼主发表的内容
回复 支持 反对

使用道具 举报

38

主题

1255

帖子

3591

积分

4K家园VIP

Rank: 9Rank: 9Rank: 9

积分
3591
7#
发表于 2020-3-21 13:31:39 | 只看该作者
这个资源我记得是一套的,楼主还有没有
回复 支持 反对

使用道具 举报

8#
匿名  发表于 2020-3-21 13:48:40
66666666
回复

使用道具

0

主题

1075

帖子

3059

积分

中级会员

Rank: 4

积分
3059
9#
发表于 2020-3-21 15:11:58 | 只看该作者
体验下4K版的
回复 支持 反对

使用道具 举报

0

主题

2

帖子

76

积分

4K家园VIP

Rank: 9Rank: 9Rank: 9

积分
76
10#
发表于 2020-3-21 16:51:59 | 只看该作者
谢谢楼主资源
回复 支持 反对

使用道具 举报

您需要登录后才可以回帖 登录 | 立即注册

本版积分规则

精彩图文
Archiver|手机版|TAG|Sitemap|新帖|专题|联系我们:邮箱: 4kjia.com@gmail.com   

4k家园   ©2019